<svg xmlns="http://www.w3.org/2000/svg">
<defs>
<font id="EmbeddedFont_1" horiz-adv-x="2048">
   <font-face font-family="Open Sans embedded" units-per-em="2048" font-weight="normal" font-style="normal" ascent="2201" descent="593" id="font-face10"/>
   <missing-glyph horiz-adv-x="2048" d="M 0,0 L 2047,0 2047,2047 0,2047 0,0 Z" id="missing-glyph12"/>
   <glyph unicode="y" horiz-adv-x="1038" d="M 2,1096 L 180,1096 420,471 C 473,328 505,225 518,162 L 526,162 C 535,196 553,254 581,337 608,419 699,672 852,1096 L 1030,1096 559,-152 C 512,-275 458,-363 396,-415 333,-466 257,-492 166,-492 115,-492 65,-486 16,-475 L 16,-342 C 53,-350 94,-354 139,-354 253,-354 334,-290 383,-162 L 444,-6 2,1096 Z" id="glyph14"/>
   <glyph unicode="u" horiz-adv-x="954" d="M 332,1096 L 332,385 C 332,296 352,229 393,185 434,141 497,119 584,119 699,119 783,150 836,213 889,276 915,378 915,520 L 915,1096 1081,1096 1081,0 944,0 920,147 911,147 C 877,93 830,52 770,23 709,-6 640,-20 563,-20 430,-20 330,12 264,75 197,138 164,240 164,379 L 164,1096 332,1096 Z" id="glyph16"/>
   <glyph unicode="r" horiz-adv-x="658" d="M 676,1116 C 725,1116 768,1112 807,1104 L 784,950 C 739,960 699,965 664,965 575,965 500,929 437,857 374,785 342,695 342,588 L 342,0 176,0 176,1096 313,1096 332,893 340,893 C 381,964 430,1019 487,1058 544,1097 607,1116 676,1116 Z" id="glyph18"/>
   <glyph unicode="p" horiz-adv-x="996" d="M 686,-20 C 615,-20 550,-7 491,20 432,46 382,86 342,141 L 330,141 C 338,77 342,16 342,-41 L 342,-492 176,-492 176,1096 311,1096 334,946 342,946 C 385,1006 434,1049 491,1076 548,1103 613,1116 686,1116 831,1116 944,1066 1023,967 1102,868 1141,728 1141,549 1141,369 1101,229 1021,130 940,30 829,-20 686,-20 Z M 662,975 C 550,975 469,944 419,882 369,820 343,721 342,586 L 342,549 C 342,395 368,285 419,219 470,152 553,119 666,119 761,119 835,157 889,234 942,311 969,416 969,551 969,688 942,793 889,866 835,939 759,975 662,975 Z" id="glyph20"/>
   <glyph unicode="o" horiz-adv-x="1038" d="M 1122,549 C 1122,370 1077,231 987,131 897,30 773,-20 614,-20 516,-20 429,3 353,49 277,95 218,161 177,247 136,333 115,434 115,549 115,728 160,867 249,967 338,1066 462,1116 621,1116 774,1116 896,1065 987,963 1077,861 1122,723 1122,549 Z M 287,549 C 287,409 315,302 371,229 427,156 509,119 618,119 727,119 809,156 866,229 922,302 950,408 950,549 950,688 922,794 866,867 809,939 726,975 616,975 507,975 425,939 370,868 315,797 287,690 287,549 Z" id="glyph22"/>
   <glyph unicode="n" horiz-adv-x="933" d="M 926,0 L 926,709 C 926,798 906,865 865,909 824,953 761,975 674,975 559,975 475,944 422,882 369,820 342,718 342,575 L 342,0 176,0 176,1096 311,1096 338,946 346,946 C 380,1000 428,1042 489,1072 550,1101 619,1116 694,1116 826,1116 925,1084 992,1021 1059,957 1092,855 1092,715 L 1092,0 926,0 Z" id="glyph24"/>
   <glyph unicode="m" horiz-adv-x="1589" d="M 1573,0 L 1573,713 C 1573,800 1554,866 1517,910 1480,953 1422,975 1343,975 1240,975 1163,945 1114,886 1065,827 1040,735 1040,612 L 1040,0 874,0 874,713 C 874,800 855,866 818,910 781,953 722,975 643,975 539,975 463,944 415,882 366,819 342,717 342,575 L 342,0 176,0 176,1096 311,1096 338,946 346,946 C 377,999 422,1041 479,1071 536,1101 599,1116 670,1116 841,1116 953,1054 1006,930 L 1014,930 C 1047,987 1094,1033 1156,1066 1218,1099 1289,1116 1368,1116 1492,1116 1585,1084 1647,1021 1708,957 1739,855 1739,715 L 1739,0 1573,0 Z" id="glyph26"/>
   <glyph unicode="l" horiz-adv-x="192" d="M 342,0 L 176,0 176,1556 342,1556 342,0 Z" id="glyph28"/>
   <glyph unicode="i" horiz-adv-x="213" d="M 342,0 L 176,0 176,1096 342,1096 342,0 Z M 162,1393 C 162,1431 171,1459 190,1477 209,1494 232,1503 260,1503 287,1503 310,1494 329,1476 348,1458 358,1430 358,1393 358,1356 348,1328 329,1310 310,1291 287,1282 260,1282 232,1282 209,1291 190,1310 171,1328 162,1356 162,1393 Z" id="glyph30"/>
   <glyph unicode="g" horiz-adv-x="1060" d="M 1073,1096 L 1073,991 870,967 C 889,944 905,913 920,876 935,838 942,795 942,748 942,641 905,555 832,491 759,427 658,395 530,395 497,395 467,398 438,403 367,366 332,319 332,262 332,232 344,210 369,196 394,181 436,174 496,174 L 690,174 C 809,174 900,149 964,99 1027,49 1059,-24 1059,-119 1059,-240 1010,-333 913,-397 816,-460 674,-492 487,-492 344,-492 233,-465 156,-412 78,-359 39,-283 39,-186 39,-119 60,-62 103,-13 146,36 206,69 283,86 255,99 232,118 213,145 194,172 184,203 184,238 184,278 195,313 216,343 237,373 271,402 317,430 260,453 214,493 179,549 143,605 125,669 125,741 125,861 161,954 233,1019 305,1084 407,1116 539,1116 596,1116 648,1109 694,1096 L 1073,1096 Z M 199,-184 C 199,-243 224,-288 274,-319 324,-350 396,-365 489,-365 628,-365 732,-344 799,-303 866,-261 899,-204 899,-133 899,-74 881,-32 844,-10 807,14 738,25 637,25 L 438,25 C 363,25 304,7 262,-29 220,-65 199,-117 199,-184 Z M 289,745 C 289,668 311,610 354,571 397,532 458,512 535,512 697,512 778,591 778,748 778,913 696,995 532,995 454,995 394,974 352,932 310,890 289,828 289,745 Z" id="glyph32"/>
   <glyph unicode="f" horiz-adv-x="784" d="M 670,967 L 391,967 391,0 225,0 225,967 29,967 29,1042 225,1102 225,1163 C 225,1432 343,1567 578,1567 636,1567 704,1555 782,1532 L 739,1399 C 675,1420 620,1430 575,1430 512,1430 466,1409 436,1368 406,1326 391,1259 391,1167 L 391,1096 670,1096 670,967 Z" id="glyph34"/>
   <glyph unicode="e" horiz-adv-x="953" d="M 639,-20 C 477,-20 349,29 256,128 162,227 115,364 115,539 115,716 159,856 246,960 333,1064 449,1116 596,1116 733,1116 842,1071 922,981 1002,890 1042,771 1042,623 L 1042,518 287,518 C 290,389 323,292 385,225 446,158 533,125 645,125 763,125 880,150 995,199 L 995,51 C 936,26 881,8 829,-4 776,-14 713,-20 639,-20 Z M 594,977 C 506,977 436,948 384,891 331,834 300,754 291,653 L 864,653 C 864,758 841,838 794,894 747,949 681,977 594,977 Z" id="glyph36"/>
   <glyph unicode="d" horiz-adv-x="996" d="M 922,147 L 913,147 C 836,36 722,-20 569,-20 426,-20 314,29 235,127 155,225 115,364 115,545 115,726 155,866 235,966 315,1066 426,1116 569,1116 718,1116 832,1062 911,954 L 924,954 917,1033 913,1110 913,1556 1079,1556 1079,0 944,0 922,147 Z M 590,119 C 703,119 786,150 837,212 888,273 913,373 913,510 L 913,545 C 913,700 887,811 836,878 784,944 701,977 588,977 491,977 416,939 365,864 313,788 287,681 287,543 287,403 313,297 364,226 415,155 491,119 590,119 Z" id="glyph38"/>
   <glyph unicode="a" horiz-adv-x="911" d="M 850,0 L 817,156 809,156 C 754,87 700,41 646,17 591,-8 523,-20 442,-20 333,-20 248,8 187,64 125,120 94,200 94,303 94,524 271,640 625,651 L 811,657 811,725 C 811,811 793,875 756,916 719,957 659,977 578,977 487,977 383,949 268,893 L 217,1020 C 271,1049 330,1072 395,1089 459,1106 523,1114 588,1114 719,1114 816,1085 879,1027 942,969 973,876 973,748 L 973,0 850,0 Z M 475,117 C 578,117 660,145 719,202 778,259 807,338 807,440 L 807,539 641,532 C 509,527 414,507 356,471 297,434 268,378 268,301 268,241 286,195 323,164 359,133 410,117 475,117 Z" id="glyph40"/>
   <glyph unicode="T" horiz-adv-x="1123" d="M 651,0 L 481,0 481,1311 18,1311 18,1462 1114,1462 1114,1311 651,1311 651,0 Z" id="glyph42"/>
   <glyph unicode="S" horiz-adv-x="932" d="M 1026,389 C 1026,260 979,160 886,88 793,16 666,-20 506,-20 333,-20 199,2 106,47 L 106,211 C 166,186 231,166 302,151 373,136 443,129 512,129 625,129 711,151 768,194 825,237 854,296 854,373 854,424 844,465 824,498 803,530 769,560 722,587 674,614 601,645 504,680 368,729 271,786 213,853 154,920 125,1007 125,1114 125,1227 167,1316 252,1383 337,1450 449,1483 588,1483 733,1483 867,1456 989,1403 L 936,1255 C 815,1306 698,1331 584,1331 494,1331 424,1312 373,1273 322,1234 297,1181 297,1112 297,1061 306,1020 325,988 344,955 375,926 420,899 464,872 532,842 623,809 776,754 882,696 940,633 997,570 1026,489 1026,389 Z" id="glyph44"/>
   <glyph unicode="P" horiz-adv-x="953" d="M 1128,1036 C 1128,888 1078,774 977,695 876,615 731,575 543,575 L 371,575 371,0 201,0 201,1462 580,1462 C 945,1462 1128,1320 1128,1036 Z M 371,721 L 524,721 C 675,721 784,745 851,794 918,843 952,921 952,1028 952,1125 920,1197 857,1244 794,1291 695,1315 561,1315 L 371,1315 371,721 Z" id="glyph46"/>
   <glyph unicode="O" horiz-adv-x="1377" d="M 1470,733 C 1470,499 1411,315 1293,181 1174,47 1010,-20 799,-20 584,-20 418,46 301,178 184,309 125,495 125,735 125,973 184,1158 301,1289 418,1420 585,1485 801,1485 1011,1485 1175,1418 1293,1285 1411,1152 1470,968 1470,733 Z M 305,733 C 305,535 347,385 432,283 516,180 638,129 799,129 961,129 1083,180 1166,282 1249,384 1290,534 1290,733 1290,930 1249,1079 1167,1181 1084,1282 962,1333 801,1333 639,1333 516,1282 432,1180 347,1077 305,928 305,733 Z" id="glyph48"/>
   <glyph unicode="L" horiz-adv-x="847" d="M 201,0 L 201,1462 371,1462 371,154 1016,154 1016,0 201,0 Z" id="glyph50"/>
   <glyph unicode="G" horiz-adv-x="1250" d="M 844,766 L 1341,766 1341,55 C 1264,30 1185,12 1105,-1 1025,-14 932,-20 827,-20 606,-20 433,46 310,178 187,309 125,494 125,731 125,883 156,1016 217,1131 278,1245 365,1332 480,1393 595,1453 729,1483 883,1483 1039,1483 1184,1454 1319,1397 L 1253,1247 C 1121,1303 994,1331 872,1331 694,1331 555,1278 455,1172 355,1066 305,919 305,731 305,534 353,384 450,282 546,180 687,129 874,129 975,129 1074,141 1171,164 L 1171,614 844,614 844,766 Z" id="glyph52"/>
   <glyph unicode="E" horiz-adv-x="847" d="M 1016,0 L 201,0 201,1462 1016,1462 1016,1311 371,1311 371,840 977,840 977,690 371,690 371,152 1016,152 1016,0 Z" id="glyph54"/>
   <glyph unicode="A" horiz-adv-x="1313" d="M 1120,0 L 938,465 352,465 172,0 0,0 578,1468 721,1468 1296,0 1120,0 Z M 885,618 L 715,1071 C 693,1128 670,1199 647,1282 632,1218 611,1148 584,1071 L 412,618 885,618 Z" id="glyph56"/>
   <glyph unicode="5" horiz-adv-x="932" d="M 557,893 C 711,893 832,855 921,779 1009,702 1053,598 1053,465 1053,314 1005,195 909,109 812,23 679,-20 510,-20 345,-20 220,6 133,59 L 133,219 C 180,189 238,166 307,149 376,132 445,123 512,123 629,123 721,151 786,206 851,261 883,341 883,446 883,650 758,752 508,752 445,752 360,742 254,723 L 168,778 223,1462 950,1462 950,1309 365,1309 328,870 C 405,885 481,893 557,893 Z" id="glyph58"/>
   <glyph unicode="4" horiz-adv-x="1102" d="M 1130,336 L 913,336 913,0 754,0 754,336 43,336 43,481 737,1470 913,1470 913,487 1130,487 1130,336 Z M 754,487 L 754,973 C 754,1068 757,1176 764,1296 L 756,1296 C 724,1232 694,1179 666,1137 L 209,487 754,487 Z" id="glyph60"/>
   <glyph unicode="3" horiz-adv-x="974" d="M 1006,1118 C 1006,1025 980,948 928,889 875,830 801,790 705,770 L 705,762 C 822,747 909,710 966,650 1023,590 1051,511 1051,414 1051,275 1003,168 906,93 809,18 672,-20 494,-20 417,-20 346,-14 282,-3 217,9 155,30 94,59 L 94,217 C 157,186 225,162 297,146 368,129 436,121 500,121 753,121 879,220 879,418 879,595 740,684 461,684 L 317,684 317,827 463,827 C 577,827 667,852 734,903 801,953 834,1023 834,1112 834,1183 810,1239 761,1280 712,1321 645,1341 561,1341 497,1341 437,1332 380,1315 323,1298 259,1266 186,1219 L 102,1331 C 162,1378 231,1416 310,1443 388,1470 470,1483 557,1483 699,1483 809,1451 888,1386 967,1321 1006,1231 1006,1118 Z" id="glyph62"/>
   <glyph unicode="2" horiz-adv-x="996" d="M 1061,0 L 100,0 100,143 485,530 C 602,649 680,733 717,784 754,835 782,884 801,932 820,980 829,1032 829,1087 829,1165 805,1227 758,1273 711,1318 645,1341 561,1341 500,1341 443,1331 389,1311 334,1291 274,1255 207,1202 L 119,1315 C 254,1427 400,1483 559,1483 696,1483 804,1448 882,1378 960,1307 999,1213 999,1094 999,1001 973,910 921,819 869,728 772,614 629,475 L 309,162 309,154 1061,154 1061,0 Z" id="glyph64"/>
   <glyph unicode="1" horiz-adv-x="552" d="M 715,0 L 553,0 553,1042 C 553,1129 556,1211 561,1288 547,1274 531,1259 514,1244 497,1229 417,1164 276,1049 L 188,1163 575,1462 715,1462 715,0 Z" id="glyph66"/>
   <glyph unicode=" " horiz-adv-x="529" id="glyph68"/>
  </font>
 </defs>
 <defs id="defs94">
  <font id="EmbeddedFont_2" horiz-adv-x="2048">
   <font-face font-family="Open Sans embedded" units-per-em="2048" font-weight="bold" font-style="normal" ascent="2201" descent="593" id="font-face73"/>
   <missing-glyph horiz-adv-x="2048" d="M 0,0 L 2047,0 2047,2047 0,2047 0,0 Z" id="missing-glyph75"/>
   <glyph unicode="S" horiz-adv-x="974" d="M 1047,406 C 1047,274 1000,170 905,94 810,18 677,-20 508,-20 352,-20 214,9 94,68 L 94,356 C 193,312 276,281 345,263 413,245 475,236 532,236 600,236 652,249 689,275 725,301 743,340 743,391 743,420 735,445 719,468 703,490 680,511 649,532 618,553 554,586 459,631 370,673 303,713 258,752 213,791 178,836 151,887 124,938 111,998 111,1067 111,1196 155,1298 243,1372 330,1446 451,1483 606,1483 682,1483 755,1474 824,1456 893,1438 965,1413 1040,1380 L 940,1139 C 862,1171 798,1193 747,1206 696,1219 645,1225 596,1225 537,1225 492,1211 461,1184 430,1157 414,1121 414,1077 414,1050 420,1026 433,1006 446,985 466,966 494,947 521,928 587,893 690,844 827,779 920,713 971,648 1022,582 1047,501 1047,406 Z" id="glyph77"/>
   <glyph unicode="P" horiz-adv-x="1039" d="M 494,774 L 596,774 C 691,774 763,793 810,831 857,868 881,923 881,995 881,1068 861,1121 822,1156 782,1191 720,1208 635,1208 L 494,1208 494,774 Z M 1194,1006 C 1194,849 1145,728 1047,645 948,562 808,520 627,520 L 494,520 494,0 184,0 184,1462 651,1462 C 828,1462 963,1424 1056,1348 1148,1271 1194,1157 1194,1006 Z" id="glyph79"/>
   <glyph unicode="L" horiz-adv-x="933" d="M 184,0 L 184,1462 494,1462 494,256 1087,256 1087,0 184,0 Z" id="glyph81"/>
   <glyph unicode="E" horiz-adv-x="869" d="M 1026,0 L 184,0 184,1462 1026,1462 1026,1208 494,1208 494,887 989,887 989,633 494,633 494,256 1026,256 1026,0 Z" id="glyph83"/>
   <glyph unicode="5" horiz-adv-x="1017" d="M 614,934 C 755,934 868,894 952,815 1035,736 1077,627 1077,489 1077,326 1027,200 926,112 825,24 681,-20 494,-20 331,-20 200,6 100,59 L 100,326 C 153,298 214,275 284,258 354,240 420,231 483,231 672,231 766,308 766,463 766,610 668,684 473,684 438,684 399,681 356,674 313,667 279,659 252,651 L 129,717 184,1462 977,1462 977,1200 455,1200 428,913 463,920 C 504,929 554,934 614,934 Z" id="glyph85"/>
   <glyph unicode="3" horiz-adv-x="1038" d="M 1047,1135 C 1047,1044 1019,966 964,902 909,838 831,794 731,770 L 731,764 C 849,749 938,714 999,657 1060,600 1090,523 1090,426 1090,285 1039,176 937,98 835,19 689,-20 500,-20 341,-20 201,6 78,59 L 78,322 C 135,293 197,270 265,252 333,234 400,225 467,225 569,225 644,242 693,277 742,312 766,367 766,444 766,513 738,561 682,590 626,619 537,633 414,633 L 303,633 303,870 416,870 C 529,870 612,885 665,915 717,944 743,995 743,1067 743,1178 674,1233 535,1233 487,1233 438,1225 389,1209 339,1193 284,1165 223,1126 L 80,1339 C 213,1435 372,1483 557,1483 708,1483 828,1452 916,1391 1003,1330 1047,1244 1047,1135 Z" id="glyph87"/>
   <glyph unicode="1" horiz-adv-x="763" d="M 846,0 L 537,0 537,846 540,985 545,1137 C 494,1086 458,1052 438,1036 L 270,901 121,1087 592,1462 846,1462 846,0 Z" id="glyph89"/>
   <glyph unicode=" " horiz-adv-x="529" id="glyph91"/>
  </font>
</defs>
</svg>
